#TITLE:Man In Love;
#SUBTITLE:Expi3nze;
#ARTIST:Infinite;
#TITLETRANSLIT:;
#SUBTITLETRANSLIT:;
#ARTISTTRANSLIT:;
#CREDIT:;
#BANNER:bn.png;
#BACKGROUND:bg.png;
#LYRICSPATH:;
#CDTITLE:;
#MUSIC:A Man In Love.mp3;
#OFFSET:-0.120;
#SAMPLESTART:47.497;
#SAMPLELENGTH:18.033;
#SELECTABLE:YES;
#BPMS:0.000=122.003,1.000=61.004,1.167=244.051,1.500=122.003,1.750=61.004,1.917=244.186,2.000=244.006,2.250=122.003,2.500=61.004,2.667=244.051,3.000=122.003,4.000=121.997,5.000=122.003,6.000=121.997,7.000=122.003,8.000=121.997,9.000=122.003,10.000=121.997,11.000=122.003,12.000=121.997,13.000=122.003,14.000=121.997,15.000=122.003,16.000=121.997,17.000=122.003,18.000=121.997,19.000=122.003,20.000=121.997,21.000=122.003,22.000=121.997,24.000=122.003,25.000=121.997,26.000=122.003,27.000=121.997,28.000=122.003,29.000=121.997,30.000=122.003,31.000=121.997,32.000=122.003,33.000=121.997,34.000=122.003,35.000=121.997,36.000=122.003,37.000=121.997,38.000=122.003,39.000=121.997,40.000=122.003,41.000=121.997,43.000=122.003,44.000=121.997,45.000=122.003,46.000=121.997,47.000=122.003,48.000=121.997,49.000=122.003,50.000=121.997,51.000=122.003,52.000=121.997,53.000=122.003,54.000=121.997,55.000=122.003,56.000=121.997,57.000=122.003,58.000=121.997,59.000=122.003,60.000=121.997,62.000=122.003,63.000=121.997,64.000=122.003,65.000=121.997,66.000=122.003,67.000=121.997,68.000=122.003,69.000=121.997,70.000=122.003,71.000=121.997,72.000=122.003,73.000=121.997,74.000=122.003,75.000=121.997,76.000=122.003,77.000=121.997,78.000=122.003,79.000=121.997,81.000=122.003,82.000=121.997,83.000=122.003,84.000=121.997,85.000=122.003,86.000=121.997,87.000=122.003,88.000=121.997,89.000=122.003,90.000=121.997,91.000=122.003,92.000=121.997,93.000=122.003,94.000=121.997,95.000=122.003,96.000=121.997,98.000=122.003,99.000=121.997,100.000=244.006,100.500=61.001,100.750=122.003,102.000=121.997,103.000=122.003,104.000=121.997,105.000=122.003,106.000=121.997,107.000=122.003,108.000=121.997,109.000=122.003,110.000=121.997,112.000=122.003,113.000=121.997,114.000=122.003,115.000=121.997,116.000=122.003,117.000=121.997,118.000=122.003,119.000=121.997,120.000=122.003,121.000=121.997,122.000=122.003,123.000=121.997,124.000=122.003,125.000=121.997,126.000=122.003,127.000=121.997,128.000=122.003,129.000=121.997,131.000=122.003,132.000=121.997,133.000=122.003,134.000=121.997,135.000=122.003,136.000=121.997,137.000=122.003,138.000=121.997,139.000=122.003,140.000=121.997,141.000=122.003,142.000=121.997,143.000=122.003,144.000=121.997,145.000=122.003,146.000=121.997,147.000=122.003,148.000=121.997,150.000=122.003,151.000=121.997,152.000=122.003,153.000=121.997,154.000=122.003,155.000=121.997,156.000=122.003,157.000=121.997,158.000=122.003,159.000=121.997,160.000=122.003,161.000=121.997,162.000=122.003,163.000=121.997,164.000=122.003,165.000=121.997,166.000=122.003,167.000=121.997,169.000=122.003,170.000=121.997,171.000=122.003,172.000=121.997,173.000=122.003,174.000=121.997,175.000=122.003,176.000=121.997,177.000=122.003,178.000=121.997,179.000=122.003,180.000=121.997,181.000=122.003,182.000=121.997,183.000=122.003,184.000=121.997,185.000=122.003,186.000=121.997,187.000=122.003,188.000=121.997,190.000=122.003,191.000=121.997,192.000=122.003,193.000=121.997,194.000=122.003,195.000=121.997,196.000=61.001,196.250=244.006,196.750=61.001,197.000=244.006,197.500=61.001,197.750=244.006,198.250=61.001,198.500=244.006,199.000=61.004,199.167=243.983,199.500=61.004,199.667=243.983,200.000=122.003,201.000=121.997,202.000=122.003,203.000=121.997,204.000=122.003,205.000=121.997,206.000=122.003,207.000=121.997,208.000=244.006,208.500=61.001,208.750=122.003,210.000=121.997,211.000=122.003,212.000=121.997,213.000=122.003,214.000=121.997,215.000=122.003,216.000=121.997,217.000=122.003,218.000=121.997,220.000=122.003,221.000=121.997,222.000=122.003,223.000=121.997,224.000=122.003,225.000=121.997,226.000=122.003,227.000=121.997,228.000=122.003,229.000=121.997,230.000=122.003,231.000=121.997,232.000=122.003,233.000=121.997,234.000=122.003,235.000=121.997,236.000=122.003,237.000=121.997,239.000=122.003,240.000=121.997,241.000=122.003,242.000=121.997,243.000=122.003,244.000=121.997,245.000=122.003,246.000=121.997,247.000=122.003,248.000=121.997,249.000=122.003,250.000=121.997,251.000=122.003,252.000=121.997,253.000=122.003,254.000=121.997,255.000=122.003,256.000=121.997,258.000=122.003,259.000=121.997,260.000=122.003,261.000=121.997,262.000=122.003,263.000=121.997,264.000=122.003,265.000=121.997,266.000=122.003,267.000=121.997,268.000=122.003,269.000=121.997,270.000=122.003,271.000=121.997,272.000=122.003,273.000=121.997,274.000=122.003,275.000=121.997,277.000=122.003,278.000=121.997,279.000=122.003,280.000=121.997,281.000=122.003,282.000=121.997,283.000=122.003,284.000=121.997;
#STOPS:;
#BGCHANGES:;
// cache tags:
#FIRSTBEAT:0.750;
#LASTBEAT:284.000;
#SONGFILENAME:Songs/SDO 7/Man In Love (Infinite)/A Man In Love.sm;
#HASMUSIC:1;
#HASBANNER:1;
#MUSICLENGTH:140.306;
// end cache tags

//---------------dance-single - ----------------
#NOTES:
     dance-single:
     :
     Hard:
     15:
     1.000,0.987,1.000,0.449,0.581,645.000,299.000,63.000,0.000,76.000:
0000
0000
0000
0100
0010
0000
0100
1000
0000
0010
0001
0000
0100
0010
0001
0100
,
0101
0000
0000
1010
0001
0000
0011
0100
1000
0011
0001
0000
0011
0000
0110
0000
,
1100
0000
0000
1001
0010
0000
1001
0000
0010
0101
1000
0001
1100
0000
1100
0000
,
0101
0000
0000
0101
1000
0000
0011
1000
0100
1010
0001
0000
1010
0000
1010
0000
,
0101
0000
0000
1100
0001
0000
1100
0001
0010
1001
0010
0000
1001
0000
0011
0000
,
1001
0000
0000
0101
0010
0000
0101
1000
0010
1001
0010
0000
1001
0000
0110
0000
,
1001
0000
0000
0011
1000
0000
0011
0100
1000
0011
0001
0000
1010
0000
1010
0000
,
0011
0000
0000
0110
0001
0000
1100
0001
0010
1100
0001
0000
0101
0000
1010
0000
,
0101
0000
0000
1010
1000
0010
1010
0001
0010
0101
0001
0001
1100
0000
1001
0000
,
1101
0000
0010
0000
0101
0000
1000
0100
0010
0000
0100
0000
0011
0000
1000
0000
,
0021
0000
0000
0032
0000
0000
2003
0100
0100
3000
0001
0000
1100
0000
0001
0000
,
1100
0000
0001
0000
1100
0000
0010
0001
0010
0000
0100
0000
1001
0000
0001
0000
,
1002
0000
0000
2003
0000
0000
3200
0010
0001
0300
0010
0000
0011
0000
1000
0000
,
1110
0000
0001
0000
1100
0000
0010
0010
0001
0000
0100
0000
1010
0000
0001
0000
,
2010
0000
0000
3200
0000
0000
0320
0001
0001
0030
1000
0000
0011
0000
1000
0000
,
0011
0000
0001
0000
0011
0000
1000
0010
0100
0000
1000
0000
1010
0000
0001
0000
,
1010
0000
0000
0000
0011
0000
1000
0011
1000
0000
1010
0000
1000
0000
0001
0000
,
2110
0000
0000
0100
0010
0000
0020
0000
3000
0000
0000
0000
1131
0000
0000
0000
,
0110
0000
0000
0110
0000
0000
0110
0000
0000
0000
0010
0000
1101
0000
0000
0000
,
0011
0000
0000
1010
0000
0000
1010
0000
0000
0000
0001
0000
1110
0000
0000
0000
,
0101
0000
0000
0101
0000
0000
0101
0000
0000
1000
0100
0001
1110
0000
0000
0000
,
0121
0000
0000
0000
1000
1000
0002
0000
0030
0000
0000
0000
1113
0000
0000
0000
,
0110
0000
0000
0110
0000
0000
1001
0000
0000
0000
0010
0000
0111
0000
0000
0000
,
1100
0000
0000
1100
0000
0000
0011
0000
0000
0000
1000
0000
0111
0000
0000
0000
,
0010
0000
0010
0001
0010
0000
0100
0100
0100
0100
0100
0100
0001
0010
0100
1000
,
0111
0000
0000
0000
1100
0000
1100
0001
0010
0000
0101
0000
0102
0000
1000
0103
,
0011
0000
0110
0000
1100
0000
0011
0100
1001
0000
1001
0000
1200
0000
0001
1300
,
0011
0000
0110
0000
1100
0000
0020
1000
0100
0000
0032
0000
1100
0000
2003
0000
,
0011
0000
3001
0000
1100
0000
0010
0001
1010
0000
1010
0000
0011
0100
1000
0000
,
0111
0000
0000
0000
0101
0000
0101
0001
1000
0000
0110
0000
0210
0000
0001
0301
,
1100
0000
0110
0000
0011
0000
1001
0010
1001
0000
1100
0000
1020
0000
0001
0031
,
1100
0000
1100
0000
1100
0000
2000
0001
0010
0000
3200
0000
0011
0000
0302
0000
,
1100
0000
1003
0000
1100
0001
0010
0100
0101
0010
0101
0001
1100
0010
0001
0000
,
1110
0000
0011
0000
0011
1000
0100
0010
1100
0001
0010
1000
0110
0000
0011
0000
,
1100
0000
1100
0000
1100
0000
0001
0001
1100
0000
0101
1000
0101
0000
1000
0010
,
1100
0000
0101
0010
0101
0000
1000
0100
0011
0000
0110
0000
1100
0000
0001
0100
,
1001
0000
0011
0000
1001
0000
1100
0001
1100
0000
0001
0000
0101
0000
1000
0000
,
0111
1000
0010
0001
0010
0000
0100
0000
0012
0000
1000
1000
0113
0000
0110
0001
,
1100
0000
1001
0000
1001
0000
0001
0010
0101
1000
0011
0000
0011
0000
1000
0100
,
1001
0000
0101
1000
0101
0000
1000
1000
0110
0000
0011
0000
1100
0000
0001
0010
,
0101
0000
1010
0001
1010
0100
0011
1000
1000
1000
1000
1000
1000
1000
1000
1000
,
0211
0000
0000
0000
0011
0000
0320
1000
1000
0000
1130
0000
0011
0000
0100
0000
,
1000
0000
0010
0001
1010
0000
1000
1000
0011
0000
1100
0000
0011
0000
1100
0000
,
0012
0000
0000
0000
1010
0000
2003
0010
0001
0000
3110
0000
0110
0000
1000
0100
,
0010
0000
0001
0000
1010
0000
0001
0100
0011
0000
0011
0000
0011
0100
1000
0000
,
0211
0000
0000
0000
1010
0000
0320
1000
1000
0000
0131
0000
0101
0000
1000
0000
,
0011
0000
1000
0010
0100
0000
0010
0001
1010
0000
1010
0000
0011
0000
1000
0000
,
0012
0000
1000
0000
0110
0000
1000
1000
0113
0000
0011
0000
1100
0000
0001
0000
,
2100
0000
0001
0000
0011
0000
0100
0001
0110
0000
0110
0000
0110
0001
0010
0100
,
0012
0000
0000
0000
0000
0000
0200
0000
0003
0000
3000
0000
0020
0300
0000
0000
0000
0000
0002
0030
0000
0000
0000
0000
2110
0003
0000
0000
0200
0000
0000
0000
,
3002
0000
0000
0310
0100
0010
0100
0010
0100
0010
0100
0010
0100
0010
0100
0010
0100
0010
0100
0010
0100
0010
0000
0000
,
1103
0000
0000
1100
0000
0000
1100
0000
0001
0001
0100
0010
0001
0100
0100
0100
,
0101
0000
0000
0000
1100
0000
1100
0001
0010
0000
0101
0000
0102
0000
1000
0103
,
0011
0000
0110
0000
1100
0000
0011
0100
1001
0000
1001
0000
1200
0000
0001
1300
,
0011
0000
0110
0000
1100
0000
0020
1000
0100
0000
0032
0000
1100
0000
2003
0000
,
0011
0000
3001
0000
1100
0000
0010
0001
1010
0000
1010
0000
0011
0100
1000
0000
,
0111
0000
0000
0000
0101
0000
0101
0001
1000
0000
0110
0000
0210
0000
0001
0301
,
1100
0000
0110
0000
0011
0000
1001
0010
1001
0000
1100
0000
1020
0000
0001
0031
,
1100
0000
1100
0000
1100
0000
2000
0001
0010
0000
3200
0000
0011
0000
0302
0000
,
1100
0000
1003
0000
1100
0001
0010
0100
0101
0010
0101
0001
1100
0010
0001
0000
,
2110
0000
0000
0000
0110
0000
0100
0010
0001
0000
0110
0000
0110
0000
0001
0000
,
0110
0011
0110
0011
0110
0011
0110
0011
,
3210
0000
0000
0000
1010
0000
0010
0001
0010
0000
0011
0000
0011
0000
1000
0000
,
1301
0011
0110
1100
0101
0101
1010
0001
,
2110
0000
0000
0000
0110
0000
3200
0001
0010
0000
0320
0000
0101
0000
0000
0000
,
0032
0000
1100
0000
1100
0000
0203
0001
0010
0000
1001
0000
1001
0000
0011
0000
,
0321
0000
1000
0000
1100
0000
2030
0001
0010
0000
3200
0000
0011
0000
0302
0000
,
1100
0000
1000
1000
1000
1000
0100
0010
2013
0010
0010
0010
0010
0010
0010
0000
,
0022
0000
3000
0000
,
0000
0000
0000
0000
,
0000
0000
0000
0000
,
0033
0000
0000
0000
,
0000
0000
0000
0000
,
0000
0000
0000
0000
,
0000
0000
0000
0000
,
0000
0000
0000
0000
,
0000
0000
0000
0000
;

//---------------dance-single - Copied from----------------
#NOTES:
     dance-single:
     Copied from:
     Medium:
     10:
     0.945,0.886,1.000,0.449,0.485,602.000,243.000,63.000,0.000,70.000:
0000
0000
0000
1000
0010
0000
1000
0010
0000
1000
0010
0000
0100
0010
0001
0000
,
0100
0000
0000
1000
0001
0000
0010
0100
1000
0010
0001
0000
0011
0000
0110
0000
,
1100
0000
0000
0001
0010
0000
1000
0000
0010
0100
1000
0001
1100
0000
1100
0000
,
0101
0000
0000
0100
1000
0000
0011
1000
0100
0010
0001
0000
1010
0000
1010
0000
,
0101
0000
0000
0100
0001
0000
0100
1000
0010
0100
0010
0000
1001
0000
0011
0000
,
1001
0000
0000
0001
0010
0000
0100
1000
0010
0001
0010
0000
1001
0000
0110
0000
,
1001
0000
0000
0010
1000
0000
0010
0100
1000
0010
0001
0000
1010
0000
1010
0000
,
0011
0000
0000
0010
0001
0000
0100
0001
0010
0100
0001
0000
0101
0000
1010
0000
,
0101
0000
0000
0010
0100
0010
0100
0001
0010
0100
0010
0001
1100
0000
1001
0000
,
1101
0000
0010
0000
0101
0000
1000
0100
0010
0000
0100
0000
0011
0000
1000
0000
,
0021
0000
0000
0032
0000
0000
2003
0000
0000
3000
0001
0000
1100
0000
0001
0000
,
1100
0000
0001
0000
1100
0000
0010
0001
0010
0000
0100
0000
1001
0000
0001
0000
,
1002
0000
0000
2003
0000
0000
3200
0000
0000
0300
0010
0000
0011
0000
1000
0000
,
1110
0000
0001
0000
1100
0000
0010
0010
0001
0000
0100
0000
1010
0000
0001
0000
,
2010
0000
0000
3200
0000
0000
0320
0000
0000
0030
1000
0000
0011
0000
1000
0000
,
0011
0000
0001
0000
0011
0000
1000
0010
0100
0000
1000
0000
1010
0000
0001
0000
,
1010
0000
0000
0000
0011
0000
1000
0011
1000
0000
1010
0000
1000
0000
0001
0000
,
2110
0000
0000
0100
0010
0000
0020
0000
3000
0000
0000
0000
1131
0000
0000
0000
,
0110
0000
0000
0110
0000
0000
0110
0000
0000
0000
0010
0000
1101
0000
0000
0000
,
0011
0000
0000
1010
0000
0000
1010
0000
0000
0000
0001
0000
1110
0000
0000
0000
,
0101
0000
0000
0101
0000
0000
0101
0000
0000
1000
0100
0001
1110
0000
0000
0000
,
0121
0000
0000
0000
1000
1000
0002
0000
0030
0000
0000
0000
1113
0000
0000
0000
,
0110
0000
0000
0110
0000
0000
1001
0000
0000
0000
0010
0000
0111
0000
0000
0000
,
1100
0000
0000
1100
0000
0000
0011
0000
0000
0000
1000
0000
0111
0000
0000
0000
,
0010
0000
0010
0001
0010
0000
0100
1000
0100
1000
0100
1000
0001
0010
0100
1000
,
0111
0000
0000
0000
1100
0000
1100
0001
0010
0000
0101
0000
0102
0000
1000
0000
,
0113
0000
0110
0000
1100
0000
0011
0100
1001
0000
1001
0000
2000
0000
0000
0000
,
3011
0110
1100
0020
0000
0032
1100
2003
,
0011
0000
3001
0000
1100
0000
0010
0001
1010
0000
1010
0000
0011
0100
1000
0000
,
0111
0000
0000
0000
0101
0000
0101
0001
1000
0000
0110
0000
0210
0000
0000
0000
,
1310
0000
1010
0000
0011
0000
1000
0010
1001
0000
1100
0000
1020
0000
0000
0000
,
1130
0000
1100
0000
1100
0000
2000
0001
0010
0000
3200
0000
0011
0000
0302
0000
,
1100
0000
1003
0000
1100
0001
0010
0001
0010
0001
0010
0001
1100
0010
0001
0000
,
1110
0000
0011
0000
0011
1000
0100
0010
0100
0001
0010
0100
1000
0000
0001
0000
,
1100
0000
1100
0000
1100
0000
0001
0001
1100
0000
0001
0010
0100
0000
1000
0010
,
1100
0000
0001
0010
0101
0000
1000
0100
0011
0000
0110
0000
1100
0000
0001
0100
,
1001
0000
0010
0000
1001
0000
1000
0001
1100
0000
0001
0000
0101
0000
1000
0000
,
0111
1000
0010
0001
0010
0000
0100
0000
0012
0000
1000
0000
0113
0000
0001
0010
,
1100
0000
1001
0000
1001
0000
0001
0010
0101
1000
0011
0000
0011
0000
1000
0100
,
0001
0000
0101
1000
0101
0000
1000
1000
0110
0000
0011
0000
1100
0000
0001
0010
,
0101
0000
0010
0001
0010
0100
0011
1000
0100
1000
0100
1000
0100
1000
0100
1000
,
0211
0000
0000
0000
0011
0000
0320
1000
1000
0000
1130
0000
0011
0000
0100
0000
,
1000
0000
0010
0001
1010
0000
1000
1000
0011
0000
1100
0000
0011
0000
1100
0000
,
0012
0000
0000
0000
1010
0000
2003
0010
0001
0000
3110
0000
0110
0000
1000
0100
,
0010
0000
0001
0000
1010
0000
0001
0100
0011
0000
0011
0000
0011
0100
1000
0000
,
0211
0000
0000
0000
1010
0000
0320
1000
1000
0000
0131
0000
0101
0000
1000
0000
,
0011
0000
1000
0010
0100
0000
0010
0001
1010
0000
1010
0000
0011
0000
1000
0000
,
0012
1000
0110
1000
0113
0011
1100
0001
,
2100
0000
0001
0000
0011
0000
0100
0001
0110
0000
0110
0000
0110
0001
0010
0100
,
0012
0000
0000
0000
0000
0000
0200
0000
0003
0000
3000
0000
0020
0300
0000
0000
0000
0000
0002
0030
0000
0000
0000
0000
2110
0003
0000
0000
0200
0000
0000
0000
,
3002
0300
0000
0000
0000
0000
0000
0000
,
1103
0000
0000
1100
0000
0000
1100
0000
0001
0010
0100
0010
0001
0010
0100
0010
,
0001
0000
0000
0000
1100
0000
1100
0001
0010
0000
0101
0000
0102
0000
1000
0000
,
1013
0000
1010
0000
1100
0000
0011
0100
1001
0000
1001
0000
2000
0000
0001
0000
,
3011
0000
0110
0000
1100
0000
0020
1000
0100
0000
0032
0000
1100
0000
2003
0000
,
0011
0000
3001
0000
1100
0000
0010
0001
1010
0000
1010
0000
0011
0100
1000
0000
,
0111
0000
0000
0000
0101
0000
0101
0001
1000
0000
0110
0000
0210
0000
0000
0000
,
1310
0000
0110
0000
0011
0000
1001
0010
1001
0000
1100
0000
1020
0000
0000
0000
,
1130
0000
1100
0000
1100
0000
2000
0001
0010
0000
3200
0000
0011
0000
0302
0000
,
1100
0000
1003
0000
1100
0001
0010
0100
1000
0010
0100
0001
1100
0010
0001
0000
,
2110
0000
0000
0000
0110
0000
0100
0010
0001
0000
0110
0000
0110
0000
0001
0000
,
0100
0001
0100
0001
0100
0001
0100
0001
,
3200
0000
0000
0000
1010
0000
0010
0001
0010
0000
0011
0000
0011
0000
1000
0000
,
1301
0011
0110
1100
0101
0101
1010
0001
,
2010
0000
0000
0000
0110
0000
3200
0001
0010
0000
0320
0000
0101
0000
0000
0000
,
0032
0000
0100
0000
1000
0000
0203
0001
0010
0000
1001
0000
1001
0000
0011
0000
,
0321
0000
1000
0000
1100
0000
2030
0001
0010
0000
3200
0000
0011
0000
0302
0000
,
1100
0000
1000
0100
0010
1000
0100
0010
2003
0010
0001
0010
0001
0010
0001
0000
,
0022
0000
3000
0000
,
0000
0000
0000
0000
,
0000
0000
0000
0000
,
0033
0000
0000
0000
;
